All The Way 2016 Torrent

0 / 3692
All The Way 2016

All The Way 2016 Torrent

Download Movie All The Way 2016 1080p Torrent

All The Way 2016 Torrent


Video

ID : 1
Format : AVC
Format/Info : Advanced Video Codec
Format profile : High@L4.1
Format settings, CABAC : Yes
Format settings, ReFrames : 4 frames
Codec ID : V_MPEG4/ISO/AVC
Duration : 2h 12mn
Bit rate : 11.5 Mbps
Width : 1 920 pixels
Height : 1 080 pixels
Display aspect ratio : 16:9
Frame rate mode : Constant
Frame rate : 23.976 (24000/1001) fps
Color space : YUV
Chroma subsampling : 4:2:0
Bit depth : 8 bits
Scan type : Progressive
Bits/(Pixel*Frame) : 0.231
Stream size : 10.2 GiB (86%)
Title : All.The.Way.2016.1080p.BluRay.x264.DTS-FGT
Language : English
Default : Yes
Forced : No

Audio
ID : 2
Format : DTS
Format/Info : Digital Theater Systems
Mode : 16
Format settings, Endianness : Big
Codec ID : A_DTS
Duration : 2h 12mn
Bit rate mode : Constant
Bit rate : 1 509 Kbps
Channel(s) : 6 channels
Channel positions : Front: L C R, Side: L R, LFE
Sampling rate : 48.0 KHz
Frame rate : 93.750 fps (512 spf)
Bit depth : 24 bits
Compression mode : Lossy
Stream size : 1.39 GiB (12%)
Title : All.The.Way.2016.1080p.BluRay.x264.DTS-FGT
Language : English
Default : Yes
Forced : No


▶ All The Way: Trailer (HBO Films)


♦ All The Way 2016 Torrent

¶ Download Movie All The Way 2016 1080p Torrent

  • – All.The.Way.2016.1080p.BluRay.x264.DTS-FGT[T1G]

( Size : 11.81 GB )

Download Torrent

All The Way 2016 Torrent


Download And Enter Or Extract .rar To Get Torrent
◊ Help: How To Download Through Torrent



¶ Note: Open Website On Browser internet explorer or Opera to Enter categories Torrents, as: download-torrent-now.com/category/movies ¶ Contact: shamvenice91@gmail.com

Related Posts

Leave a Reply

Your email address will not be published. Required fields are marked *

Time limit is exhausted. Please reload CAPTCHA.