Batman v Superman Dawn of Justice 2016 Torrent

0 / 5929
Batman v Superman Dawn of Justice 2016 Ultimate Edition 1080p Torrent

Batman v Superman Dawn of Justice 2016 Torrent

Download Movie Batman v Superman Dawn of Justice 2016 HDTS Torrent

Batman v Superman Dawn of Justice 2016 Torrent


Movie: Batman v Superman: Dawn of Justice
Detected quality: TeleSync

Genres: Action, Sci Fi, Adventure, Fantasy

Release date: 25 March 2016
Writers: Chris Terrio, David S. Goyer, Bob Kane (Batman created by), Bill Finger (Batman created by), Jerry Siegel (Superman created by), Joe Shuster (Superman created by)
Director: Zack Snyder

Language: English

Cast: Ben Affleck, Amy Adams, Henry Cavill, Jason Momoa and others

Summary: Fearing the actions of Superman are left unchecked, Batman takes on the man of steel, while the world wrestles with what kind of a hero it really needs. With Batman and Superman fighting each other, a new threat, Doomsday, is created by Lex Luthor. It’s up to Superman and Batman to set aside their differences along with Wonder Woman to stop Lex Luthor and Doomsday from destroying Metropolis.


Video: HDCAM peruvian
Audio: THX Th0ravenger for the fantastic Line Audio, (Uploaders from ET are NOT welcome to copy our sources, come up with your own sources to impress your fans! If you copy ours, then please leave credit too!)

Note:
This is a complete video version except for the 3 seconds missing where conversation is not there, so that wont be a problem 🙂

General

Format : Matroska
File size : 2.20 GiB
Duration : 2h 23mn
Overall bit rate mode : Variable
Overall bit rate : 2 197 Kbps
Encoded date : UTC 2016-03-28 03:14:17
Writing application : mkvmerge v8.7.0 (‘All of the above’) 64bit
Writing library : libebml v1.3.3 + libmatroska v1.4.4

Video

ID : 1
Format : MPEG Video
Format version : Version 2
Format profile : Main@Main
Format settings, BVOP : Yes
Format settings, Matrix : Custom
Format settings, GOP : M=3, N=18
Format settings, picture struc : Frame
Codec ID : V_MPEG2
Codec ID/Info : MPEG 1 or 2 Video
Duration : 2h 23mn
Bit rate mode : Variable
Bit rate : 2 000 Kbps
Maximum bit rate : 9 200 Kbps
Width : 720 pixels
Height : 480 pixels
Display aspect ratio : 16:9
Frame rate mode : Variable
Frame rate : 29.970 (30000/1001) fps
Standard : NTSC
Color space : YUV
Chroma subsampling : 4:2:0
Bit depth : 8 bits
Scan type : Interlaced
Scan order : Top Field First
Compression mode : Lossy
Bits/(Pixel*Frame) : 0.193
Time code of first frame : 00:00:00:00
Time code source : Group of pictures header
GOP, Open/Closed : Open
GOP, Open/Closed of first fram : Closed
Stream size : 2.01 GiB (91%)
Writing library : TMPGEnc Video Mastering Works 5 Version. 5.0.6.38
Default : Yes
Forced : No
Color primaries : BT.601 NTSC
Transfer characteristics : BT.601
Matrix coefficients : BT.601

Audio

ID : 2
Format : AC-3
Format/Info : Audio Coding 3
Mode extension : CM (complete main)
Format settings, Endianness : Big
Codec ID : A_AC3
Duration : 2h 23mn
Bit rate mode : Constant
Bit rate : 192 Kbps
Channel(s) : 2 channels
Channel positions : Front: L R
Sampling rate : 48.0 KHz
Frame rate : 31.250 fps (1536 spf)
Compression mode : Lossy
Stream size : 197 MiB (9%)
Default : Yes
Forced : No


▶ Batman v Superman: Dawn of Justice Official Final Trailer (2016) – Ben Affleck Superhero Movie HD


♦ Batman v Superman Dawn of Justice 2016 Torrent

¶ Download Movie Batman v Superman Dawn of Justice 2016 HDTS Torrent

  • – Batman vs Superman Dawn of Justice (2016) HDTS x264 – Exclusive(watchmovies.dk).mkv

( Size : 2.2 GB )

Download Torrent

Batman v Superman Dawn of Justice 2016 Torrent


Download And Enter Or Extract .rar To Get Torrent
◊ Help: How To Download Through Torrent



¶ Note: Open Website On Browser internet explorer or Opera to Enter categories Torrents, as: download-torrent-now.com/category/movies ¶ Contact: shamvenice91@gmail.com

Related Posts

Leave a Reply

Your email address will not be published. Required fields are marked *

Time limit is exhausted. Please reload CAPTCHA.