Howard Lovecraft And the Frozen Kingdom 2016 Torrent

0 / 9721
Howard Lovecraft And the Frozen Kingdom 2016 Torrent

Howard Lovecraft And the Frozen Kingdom 2016 Torrent

Howard Lovecraft And the Frozen Kingdom 2016 Torrent


Complete name : howard.lovecraft.and.the.frozen.kingdom.2016.1080p.bluray.x264-sprinter[PRiME].mkv
Format : Matroska
Format version : Version 4 / Version 2
File size : 4.37 GiB
Duration : 1 h 23 min
Overall bit rate : 7 487 kb/s
Encoded date : UTC 2017-01-02 20:02:29
Writing application : mkvmerge v8.3.0 (\’Over the Horizon\’) 64bit
Writing library : libebml v1.3.1 + libmatroska v1.4.2

Video
ID : 1
Format : AVC
Format/Info : Advanced Video Codec
Format profile : High@L4.1
Format settings, CABAC : Yes
Format settings, ReFrames : 4 frames
Codec ID : V_MPEG4/ISO/AVC
Duration : 1 h 23 min
Bit rate : 5 978 kb/s
Width : 1 920 pixels
Height : 1 080 pixels
Display aspect ratio : 16:9
Frame rate mode : Constant
Frame rate : 23.976 (24000/1001) FPS
Color space : YUV
Chroma subsampling : 4:2:0
Bit depth : 8 bits
Scan type : Progressive
Bits/(Pixel*Frame) : 0.120
Stream size : 3.49 GiB (80%)
Writing library : x264 core 148 r2705 3f5ed56

Audio
ID : 2
Format : DTS
Format/Info : Digital Theater Systems
Mode : 16
Format settings, Endianness : Big
Codec ID : A_DTS
Duration : 1 h 23 min
Bit rate mode : Constant
Bit rate : 1 509 kb/s
Channel(s) : 6 channels
Channel positions : Front: L C R, Side: L R, LFE
Sampling rate : 48.0 kHz
Frame rate : 93.750 FPS (512 spf)
Bit depth : 24 bits
Compression mode : Lossy
Stream size : 902 MiB (20%)
Language : English
Default : Yes
Forced : No


▶ Howard Lovecraft & the Frozen Kingdom Official Trailer 1 (2016) – Ron Perlman Movie


♦ Howard Lovecraft And the Frozen Kingdom 2016 Torrent

¶ Howard.Lovecraft.and.the.Frozen.Kingdom.2016.1080p.BluRay.x264-SPRiNTER[PRiME] torrent

( Size : 4.42 GB )

Download Torrent

Howard Lovecraft And the Frozen Kingdom 2016 Torrent



¶ Note: Open Website On Browser internet explorer or Opera to Enter categories Torrents, as: download-torrent-now.com/category/movies ¶ Contact: shamvenice91@gmail.com

Related Posts

Leave a Reply

Your email address will not be published. Required fields are marked *

Time limit is exhausted. Please reload CAPTCHA.