Jason Bourne 2016 Torrent

0 / 5066
Jason Bourne 2016 1080p Torrent

Jason Bourne 2016 Torrent

Download Movie Jason Bourne 2016 HDCAM Torrent

Jason Bourne 2016 Torrent


General
Complete name : Jason Bourne 2016
Format : MPEG-4
Format profile : Base Media / Version 2
Codec ID : mp42
File size : 709 MiB
Duration : 1h 53mn
Overall bit rate mode : Variable
Overall bit rate : 874 Kbps
Movie name : Jason Bourne 2016 HDCAM – [CLEANED-AUDIO] – x264 – Zi$t-CTRC

Video
ID : 1
Format : AVC
Format/Info : Advanced Video Codec
Format profile : Main@L4
Format settings, CABAC : Yes
Format settings, ReFrames : 4 frames
Codec ID : avc1
Codec ID/Info : Advanced Video Coding
Duration : 1h 53mn
Bit rate : 708 Kbps
Width : 720 pixels
Height : 306 pixels
Display aspect ratio : 2.35:1
Frame rate mode : Constant
Frame rate : 25.000 fps
Color space : YUV
Chroma subsampling : 4:2:0
Bit depth : 8 bits
Scan type : Progressive
Bits/(Pixel*Frame) : 0.129
Stream size : 575 MiB (81%)

Audio
ID : 2
Format : AAC
Format/Info : Advanced Audio Codec
Format profile : LC
Codec ID : 40
Duration : 1h 53mn
Bit rate mode : Variable
Bit rate : 160 Kbps
Channel(s) : 2 channels
Channel positions : Front: L R
Sampling rate : 48.0 KHz
Compression mode : Lossy
Stream size : 130 MiB (18%)
Language : English


▶ Jason Bourne Official Trailer #1 (2016) – Matt Damon, Alicia Vikander Movie HD


♦ Jason Bourne 2016 Torrent

¶ Download Movie Jason Bourne 2016 HDCAM Torrent

  • – Jason Bourne 2016 HDCAM – [CLEANED-AUDIO] – x264 – Zi$t-CTRC torrent

( Size : 713.87 MB )

Download Torrent

Jason Bourne 2016 Torrent


Download And Enter Or Extract .rar To Get Torrent
◊ Help: How To Download Through Torrent



¶ Note: Open Website On Browser internet explorer or Opera to Enter categories Torrents, as: download-torrent-now.com/category/movies ¶ Contact: shamvenice91@gmail.com

Related Posts

Leave a Reply

Your email address will not be published. Required fields are marked *

Time limit is exhausted. Please reload CAPTCHA.