Remember You 2016 Torrent

0 / 3769
Remember You 2016 Torrent

Remember You 2016 Torrent

Download Movie Remember You 2016 720p Torrent

Remember You 2016 Torrent


Movie: I Remember You
Detected quality: 720p

Genres: Romance, Comedy, Short

Release date: 27 January 2016
Writers: Ian Martin
Director: Daniel Castella

Language: Korean

Cast: Julian Glover, Montserrat Lombard, Justin Edwards, Eileen Page and others

Summary: Remember You (English title) / Don’t Forget Me (literal title)
Seok-Won (Jung Woo-Sung) lost 10 years of his memory after a car accident. He now has trouble identifying his family, friends or even himself. For some reason, he is afraid to know about his past. An afternoon visit to the hospital, leads him to sit directly in front of a woman in tears. The woman is Jin-Young (Kim Ha-Neul). Eventually, Seok-Won falls in love with Jin-Young. As the couple prepare for their future, Seok-Won’s past slowly begins to emerge.


General
Complete name : Remember.You.2014.720p.HDRip.H264-CINEFOX [MovietaM].mp4
Format : MPEG-4
Format profile : Base Media
Codec ID : isom
File size : 2.45 GiB
Duration : 1h 46mn
Overall bit rate mode : Variable
Overall bit rate : 3 286 Kbps
Encoded date : UTC 1970-01-01 00:00:00
Tagged date : UTC 1970-01-01 00:00:00
Writing application : Lavf53.13.0

Video

ID : 1
Format : AVC
Format/Info : Advanced Video Codec
Format profile : Baseline@L3
Format settings, CABAC : No
Format settings, ReFrames : 1 frame
Format settings, GOP : M=1, N=30
Codec ID : avc1
Codec ID/Info : Advanced Video Coding
Duration : 1h 46mn
Bit rate : 3 000 Kbps
Width : 1 280 pixels
Height : 720 pixels
Display aspect ratio : 16:9
Frame rate mode : Constant
Frame rate : 29.970 fps
Color space : YUV
Chroma subsampling : 4:2:0
Bit depth : 8 bits
Scan type : Progressive
Bits/(Pixel*Frame) : 0.109
Stream size : 2.23 GiB (91%)
Writing library : x264 core 116 r2074 2641b9e
Language : English
Encoded date : UTC 1970-01-01 00:00:00
Tagged date : UTC 2016-01-25 10:28:53

Audio

ID : 2
Format : AAC
Format/Info : Advanced Audio Codec
Format profile : LC
Codec ID : 40
Duration : 1h 46mn
Bit rate mode : Variable
Bit rate : 174 Kbps
Maximum bit rate : 192 Kbps
Channel(s) : 2 channels
Channel positions : Front: L R
Sampling rate : 44.1 KHz
Compression mode : Lossy
Stream size : 133 MiB (5%)
Language : English
Encoded date : UTC 1970-01-01 00:00:00
Tagged date : UTC 2016-01-25 10:28:53


Remember You 2016 TorrentRemember You 2016 Torrent


▶ I Remember You Korean Drama Trailer Full (Hello Monster)


♦ Remember You 2016 Torrent

¶ Download Movie Remember You 2016 720p Torrent


  • – Remember.You.2014.720p.HDRip.H264-CINEFOX.mp4

( Size : 2.45 GB )

Download Torrent

Remember You 2016 Torrent


Download And Enter Or Extract .rar To Get Torrent
◊ Help: How To Download Through Torrent



¶ Note: Open Website On Browser internet explorer or Opera to Enter categories Torrents, as: download-torrent-now.com/category/movies ¶ Contact: shamvenice91@gmail.com

Related Posts

Leave a Reply

Your email address will not be published. Required fields are marked *

Time limit is exhausted. Please reload CAPTCHA.