Space Cop 2016 Torrent

0 / 1838
Space Cop 2016 Torrent

Space Cop 2016 Torrent

Download Movie Space Cop 2016 HDRip Torrent

Space Cop 2016 Torrent


Movie: Space Cop
Detected quality: DVDRip

Genres: Action, Sci Fi, Comedy

Release date: 12 January 2016
Writers: Mike Stoklasa (screenplay)
Director: Jay Bauman

Language: English

Cast: Rich Evans, Mike Stoklasa, Chike Johnson, Jocelyn Ridgely and others

Summary: Sci-fi schlock comedy about a cop from the future who travels to the present, where he’s teamed up with a cryogenically frozen cop from the past who has been thawed out in the present. Out of time and out of place, these two unwitting heroes must work together to save the world from a group of renegade aliens and the re-animated brain of a mad scientist bent on global extinction.


Space.Cop.2016.HDRip.x264-STANDARD

SOURCE: 1080p.WEB-DL.x264-SMALLFRY

Space Cop is the story of a cop from the future of space who travels back in time to the present and is teamed up with a cop from the past who is unfrozen in the present. Together, they must defeat evil aliens with a sinister plan.

General
Complete name : Space.Cop.2016.HDRip.x264-STANDARD.mp4
Format : MPEG-4
Format profile : Base Media
Codec ID : isom (isom/avc1)
File size : 601 MiB
Duration : 1h 42mn
Overall bit rate mode : Variable
Overall bit rate : 822 Kbps
Encoded date : UTC 2016-01-31 15:15:54
Tagged date : UTC 2016-01-31 15:15:54

Video
ID : 1
Format : AVC
Format/Info : Advanced Video Codec
Format profile : High@L4.1
Format settings, CABAC : Yes
Format settings, ReFrames : 3 frames
Codec ID : avc1
Codec ID/Info : Advanced Video Coding
Duration : 1h 42mn
Bit rate mode : Variable
Bit rate : 702 Kbps
Maximum bit rate : 40.0 Mbps
Width : 720 pixels
Height : 304 pixels
Display aspect ratio : 2.35:1
Frame rate mode : Constant
Frame rate : 24.000 fps
Color space : YUV
Chroma subsampling : 4:2:0
Bit depth : 8 bits
Scan type : Progressive
Bits/(Pixel*Frame) : 0.134
Stream size : 513 MiB (85%)
Writing library : x264 core 148 r2638 7599210

Audio
ID : 2
Format : AAC
Format/Info : Advanced Audio Codec
Format profile : LC
Codec ID : 40
Duration : 1h 42mn
Bit rate mode : Variable
Bit rate : 116 Kbps
Maximum bit rate : 161 Kbps
Channel(s) : 2 channels
Channel positions : Front: L R
Sampling rate : 48.0 KHz
Frame rate : 46.875 fps (1024 spf)
Compression mode : Lossy
Stream size : 84.8 MiB (14%)
Language : English
Encoded date : UTC 2016-01-31 14:59:46
Tagged date : UTC 2016-01-31 15:24:56


Space Cop 2016 Torrent
Space Cop 2016 Torrent
Space Cop 2016 Torrent
Space Cop 2016 Torrent
Space Cop 2016 Torrent
Space Cop 2016 Torrent


▶ Space Cop – FINAL Trailer


♦ Space Cop 2016 Torrent

¶ Download Movie Space Cop 2016 HDRip Torrent


  • – Space.Cop.2016.HDRip.x264-STANDARD.mp4

( Size : 600.62 MB )

Download Torrent

Space Cop 2016 Torrent


Download And Enter Or Extract .rar To Get Torrent
◊ Help: How To Download Through Torrent


 


¶ Note: Open Website On Browser internet explorer or Opera to Enter categories Torrents, as: download-torrent-now.com/category/movies ¶ Contact: shamvenice91@gmail.com

Related Posts

Leave a Reply

Your email address will not be published. Required fields are marked *

Time limit is exhausted. Please reload CAPTCHA.