Star Wars The Force Awakens 2015 Torrent

0 / 4839
Star Wars The Force Awakens 2015 Torrent

Star Wars The Force Awakens 2015 Torrent

Download Movie Star Wars The Force Awakens 2015 HDTS XviD Torrent

Star Wars The Force Awakens 2015 Torrent


Movie: Star Wars: The Force Awakens
Detected quality: TeleSync

Genres: Action, Sci Fi, Adventure, Fantasy

Release date: 18 December 2015
Writers: Lawrence Kasdan, J.J. Abrams, Michael Arndt
Director: J.J. Abrams

Language: English

Cast: Harrison Ford, Carrie Fisher, Andy Serkis, Gwendoline Christie and others

Summary: Three decades after the defeat of the Galactic Empire, a new threat arises. The First Order attempts to rule the galaxy and only a rag-tag group of heroes can stop them, along with the help of the Resistance.


Director: J.J. Abrams
Writers: Lawrence Kasdan, J.J. Abrams
Stars: Daisy Ridley, John Boyega, Oscar Isaac
Genres: Action | Adventure | Fantasy | Sci-Fi
Country: USA
Language: English

Source: CHeWbacca…thanks
Line Audio: Th0ravege…thanks

Format : AVI
Format/Info : Audio Video Interleave
File size : 1.57 GiB
Duration : 2h 7mn
Overall bit rate : 1 771 Kbps
Writing application : VirtualDubMod 1.5.10.2 (build 2540/release)
Writing library : VirtualDub build 35491/release

Video

ID : 0
Format : MPEG-4 Visual
Format profile : Advanced Simple@L5
Format settings, BVOP : Yes
Format settings, QPel : No
Format settings, GMC : No warppoints
Format settings, Matrix : Default (H.263)
Muxing mode : Packed bitstream
Codec ID : XVID
Codec ID/Hint : XviD
Duration : 2h 7mn
Bit rate : 1 600 Kbps
Width : 720 pixels
Height : 320 pixels
Display aspect ratio : 2.25:1
Frame rate : 29.970 fps
Color space : YUV
Chroma subsampling : 4:2:0
Bit depth : 8 bits
Scan type : Progressive
Bits/(Pixel*Frame) : 0.232
Stream size : 1.42 GiB (90%)
Writing library : XviD 1.2.1 (UTC 2008-12-04)

Audio

ID : 1
Format : MPEG Audio
Format version : Version 1
Format profile : Layer 3
Mode : Joint stereo
Mode extension : MS Stereo
Codec ID : 55
Codec ID/Hint : MP3
Duration : 2h 7mn
Bit rate mode : Constant
Bit rate : 160 Kbps
Channel(s) : 2 channels
Sampling rate : 44.1 KHz
Stream size : 145 MiB (9%)
Alignment : Split accross interleaves
Interleave, duration : 33 ms (1.00 video frame)
Interleave, preload duration : 500 ms

Workdone:

Fix AR, perspective and rotated the video, adjusted contrast and saturation lower and sharpen up the video some.

Audio: audio was in good sync, was to flat for me so add some mids and bass to it.


Star Wars The Force Awakens 2015 Torrent

Star Wars The Force Awakens 2015 Torrent

Star Wars The Force Awakens 2015 Torrent

Star Wars The Force Awakens 2015 Torrent

Star Wars The Force Awakens 2015 Torrent

Star Wars The Force Awakens 2015 Torrent

Star Wars The Force Awakens 2015 Torrent


▶ Star Wars: The Force Awakens Trailer (Official)


♦ Star Wars The Force Awakens 2015 Torrent

¶ Download Movie Star Wars The Force Awakens 2015 HDTS XviD Torrent


  • – Star Wars The Force Awakens 2015 HDTS XviD- INFERNO.avi : 1.57 GB
    – Star Wars The Force Awakens 2015 HDTS XviD- INFERNO_SAMPLE.avi : 30.16 MB

( Size : 1.6 GB )

Download Torrent

Star Wars The Force Awakens 2015 Torrent


Download And Enter Or Extract .rar To Get Torrent
◊ Help: How To Download Through Torrent


 


¶ Note: Open Website On Browser internet explorer or Opera to Enter categories Torrents, as: download-torrent-now.com/category/movies ¶ Contact: shamvenice91@gmail.com

Related Posts

Leave a Reply

Your email address will not be published. Required fields are marked *

Time limit is exhausted. Please reload CAPTCHA.