The Legend of Tarzan 2016 1080p Blu-Ray Torrent

0 / 3951
The Legend of Tarzan 2016 Torrent

The Legend of Tarzan 2016 1080p Blu-Ray Torrent

The Legend of Tarzan 2016 1080p Blu-Ray Torrent


Specs:
Source: BD50 @ HDC

Format : Matroska
File size : 4.12 GiB
Duration : 1 h 49 min
Overall bit rate : 5 369 kb/s

Video

Format : AVC
Format/Info : Advanced Video Codec
Format profile : High@L4.1
Format settings, ReFrames : 5 frames
Codec ID : V_MPEG4/ISO/AVC
Duration : 1 h 49 min
Bit rate : 5 000 kb/s
Width : 1 920 pixels
Height : 800 pixels
Display aspect ratio : 2.40:1
Frame rate mode : Constant
Frame rate : 23.976 (24000/1001) FPS
Color space : YUV
Chroma subsampling : 4:2:0
Bit depth : 8 bits
Scan type : Progressive
Bits/(Pixel*Frame) : 0.136
Stream size : 3.82 GiB (93%)
Forced : No
Color range : Limited
Color primaries : BT.709
Transfer characteristics : BT.709
Matrix coefficients : BT.709

Audio

ID : 2
Format : AC-3
Format/Info : Audio Coding 3
Mode extension : CM (complete main)
Format settings, Endianness : Big
Codec ID : A_AC3
Duration : 1 h 49 min
Bit rate mode : Constant
Bit rate : 384 kb/s
Channel(s) : 6 channels
Channel positions : Front: L C R, Side: L R, LFE
Sampling rate : 48.0 kHz
Frame rate : 31.250 FPS (1536 spf)
Compression mode : Lossy
Stream size : 302 MiB (7%)
Language : English
Default : Yes
Forced : No


▶ The Legend of Tarzan Official IMAX Trailer (2016) – Margot Robbie, Alexander Skarsgård Movie HD


♦ The Legend of Tarzan 2016 1080p Blu-Ray Torrent

¶ The Legend of Tarzan 2016 1080p Blu-Ray Torrent

  • – The Legend of Tarzan 2016 1080p Blu-Ray x264 DDS 5.1 Sub -DDR

( Size : 4.15 GB )

Download Torrent

The Legend of Tarzan 2016 1080p Blu-Ray Torrent


Download And Enter Or Extract .rar To Get Torrent
◊ Help: How To Download Through Torrent



¶ Note: Open Website On Browser internet explorer or Opera to Enter categories Torrents, as: download-torrent-now.com/category/movies ¶ Contact: shamvenice91@gmail.com

Related Posts

Leave a Reply

Your email address will not be published. Required fields are marked *

Time limit is exhausted. Please reload CAPTCHA.