The Second Mother 2015 Torrent

0 / 1459
The Second Mother 2015 Torrent

The Second Mother 2015 Torrent

Download Movie The Second Mother 2015 Limited DVDRip Torrent

The Second Mother 2015 Torrent


Movie: The Second Mother
Detected quality: DVDRip

Genre: Drama

Release date: 03 June 2015
Writers: Anna Muylaert
Director: Anna Muylaert

Language: English

Cast: Antonio Abujamra, Regina Casé, Michel Joelsas, Helena Albergaria and others

Summary: When the estranged daughter of a hard-working live-in housekeeper suddenly appears, the unspoken class barriers that exist within the home are thrown into disarray.


The.Second.Mother.2015.LiMiTED.DVDRip.x264-LPD

Title [ The Second Mother
Release.Date [ 01/20/2016
Source [ DVD RETAIL
Release.Size [ 38x15MB
Runtime [ 1h 52mn
Video.Format [ X264
Frame.Rate [ 23.976 FPS
Aspect.Ratio [ 720×300 *WS*
Bitrate [ 674 kb/s
Subs [ English
Enjoy!

Currently looking for:
* Suppliers of pre-retail DVD\’s.
* Suppliers of DVD Screeners.

Video

ID : 2
Format : AVC
Format/Info : Advanced Video Codec
Format profile : High@L3.1
Format settings, CABAC : Yes
Format settings, ReFrames : 5 frames
Codec ID : V_MPEG4/ISO/AVC
Duration : 1h 52mn
Bit rate : 568 Kbps
Width : 720 pixels
Height : 300 pixels
Display aspect ratio : 2.40:1
Frame rate mode : Constant
Frame rate : 23.976 (24000/1001) fps
Color space : YUV
Chroma subsampling : 4:2:0
Bit depth : 8 bits
Scan type : Progressive
Bits/(Pixel*Frame) : 0.110
Stream size : 455 MiB (84%)
Writing library : x264 core 148 r2638 7599210
Language : English
Default : Yes
Forced : No

Audio

ID : 1
Format : AAC
Format/Info : Advanced Audio Codec
Format profile : LC
Codec ID : A_AAC
Duration : 1h 52mn
Bit rate : 104 Kbps
Channel(s) : 2 channels
Channel positions : Front: L R
Sampling rate : 48.0 KHz
Frame rate : 46.875 fps (1024 spf)
Compression mode : Lossy
Delay relative to video : 9ms
Stream size : 83.4 MiB (15%)
Default : Yes
Forced : No


The Second Mother 2015 TorrentThe Second Mother 2015 Torrent


▶ The Second Mother Official Trailer 1 (2015) – Drama Movie HD


♦ The Second Mother 2015 Torrent

¶ Download Movie The Second Mother 2015 Limited DVDRip Torrent


  • – the.second.mother.limited.2015.dvdrip.x264-lpd.mkv

( Size : 540.17 MB )

Download Torrent

The Second Mother 2015 Torrent


Download And Enter Or Extract .rar To Get Torrent
◊ Help: How To Download Through Torrent



¶ Note: Open Website On Browser internet explorer or Opera to Enter categories Torrents, as: download-torrent-now.com/category/movies ¶ Contact: shamvenice91@gmail.com

Related Posts

Leave a Reply

Your email address will not be published. Required fields are marked *

Time limit is exhausted. Please reload CAPTCHA.