The Shallows 2016 Torrent

0 / 4111
The Shallows 2016 Torrent

The Shallows 2016 Torrent

Download Movie The Shallows 2016 HQ 1080p Blu-ray Torrent

The Shallows 2016 Torrent


Specs:
Source: BD50 @ HDC

Format : Matroska
File size : 8.34 GiB
Duration : 1 h 26 min
Overall bit rate : 13.8 Mb/s

Video
Format : AVC
Format/Info : Advanced Video Codec
Format profile : High@L4.1
Format settings, CABAC : Yes
Format settings, ReFrames : 5 frames
Codec ID : V_MPEG4/ISO/AVC
Duration : 1 h 26 min
Bit rate : 10 000 kb/s
Width : 1 920 pixels
Height : 800 pixels
Display aspect ratio : 2.40:1
Frame rate mode : Constant
Frame rate : 23.976 (24000/1001) FPS
Color space : YUV
Chroma subsampling : 4:2:0
Bit depth : 8 bits
Scan type : Progressive
Bits/(Pixel*Frame) : 0.272
Stream size : 6.00 GiB (72%)

Audio #1
Format : DTS
Format/Info : Digital Theater Systems
Format profile : MA / Core
Mode : 16
Format settings, Endianness : Big
Codec ID : A_DTS
Duration : 1 h 26 min
Bit rate mode : Variable / Constant
Bit rate : 3 840 kb/s / 1 509 kb/s
Channel(s) : 6 channels
Channel positions : Front: L C R, Side: L R, LFE
Sampling rate : 48.0 kHz
Frame rate : 93.750 FPS (512 spf)
Bit depth : 24 bits
Compression mode : Lossless / Lossy
Stream size : 2.33 GiB (28%)
Language : English
Default : Yes
Forced : No


▶ The Shallows Official International Trailer #1 (2016) – Blake Lively, Brett Cullen Movie HD


♦ The Shallows 2016 Torrent

¶ Download Movie The Shallows 2016 HQ 1080p Blu-ray Torrent

  • – The Shallows (2016) HQ 1080p Blu-ray x264 DTS-HD 5.1 MSubs -DDR

( Size : 8.50 GB )

Download Torrent

The Shallows 2016 Torrent


Download And Enter Or Extract .rar To Get Torrent
◊ Help: How To Download Through Torrent



¶ Note: Open Website On Browser internet explorer or Opera to Enter categories Torrents, as: download-torrent-now.com/category/movies ¶ Contact: shamvenice91@gmail.com

Related Posts

Leave a Reply

Your email address will not be published. Required fields are marked *

Time limit is exhausted. Please reload CAPTCHA.